» » Various - Electric Calm V.2

Various - Electric Calm V.2 Album

Various - Electric Calm V.2 Album Performer: Various
Title: Electric Calm V.2
Style: Breaks, Downtempo, Ambient
Category: Electronic
Date of release: 2003
Size MP3: 2318 mb
Size FLAC: 1263 mb
Rating: 4.7

Tracklist

J-PunchTemple (Fretwell Dub)5:06
Twisted Air Feat. Caroline ThorpFeels Like Forever7:59
BluefishMellow Mellow5:56
Pako & FrederikPintan Alley (Extended Corridor Mix)3:12
The ForthInner Calm2:34
P.B.A.S. vs. TrafikLast House On The Left5:21
SpannerTransition2:39
BluefishFour U8:31
23rd StateCatoplex1:45
Lo Step Feat. Lior AttarThe Roots (Reprise)3:20
ForthDusk 2 Dawn6:09
TrafikHard To Resist6:46
Avatar Glitter Love5:35
Pako & FrederikMake Me (Electric Calm Reprise)2:50
TrafikKaleidoscope (Forth's Blue Mix)4:04

Versions

CategoryArtistTitle (Format)LabelCategoryCountryYear
GUEC002CDVarious Electric Calm V.2 ‎(CD, Comp, Mixed, DVD)Global Underground GUEC002CDUK2003
GUEC002VINVarious Electric Calm V.2 ‎(2xLP)Global Underground GUEC002VINUK2003
noneVarious Electric Calm V.2 ‎(CD, Comp, Mixed, Unofficial)Global Underground noneRussia2003
noneVarious Electric Calm V.2 ‎(15xFile, WAV, Mixed + File, WAV)Global Underground noneUKUnknown
noneVarious Electric Calm ‎(CDr, Comp, Promo)Global Underground noneUKUnknown

Album

Global Underground - Electric Calm Vol. Лента с персональными рекомендациями и музыкальными новинками, радио, подборки на любой вкус, удобное управление своей. Electric Calm V. 2 by The Forth. 14 songs. 2003 year. Format mp3. Download compilation for free and listen online. To favorites 1 Download album. Listen album. Ambient Downtempo. The Forth , Trafik and others. Songs in album Electric Calm V. The Forth - Inner Calm. Lo Step ft. Lior Attar - The Roots Reprise. Spanner - Transition. J-Punch - Temple Fretwell Dub. Посмотреть сведения об участниках альбома, рецензии, композиции и приобрести альбом 2003 DVD Case CD от Electric Calm V. 2 на : Global Underground Ltd. GUEC002CD Series: Electric Calm 2 Format: CD, Compilation, Mixed, DVD Case Country: UK Released: 25 Aug 2003 2003 16 Songs. Various Artists. Dance 2003. Inner Calm. The Roots Reprise. Transition Electric Calm Reprise. Temple Fretwell Dub. Kaleidoscope Forth Blue Mix. Last House On The Left. vs Trafik. Pintan Alley Extended Corridor Mix. Pako & Frederik. Dusk 2 Dawn. Glitter Love. Global Undergrou. Electric Calm, Vol. Your Rating. Overview . 2 скачать mp3 в хорошем качестве, либо слушайте песню Electric Calm v. vs Trafik, Electric Calm V. 2 - Track01, Electric Calm V. 2 - Track03, Electric Calm v. 2 - Bluefish, Electric Calm V. 2 - Track07, а также рингтоны на звонок и все новые треки. Electric Calm V 2 download free and listen online. 2 Track08. download 5:34. 2 Track09. download 5:05. VA - Electric Calm V. 2 2003 J-Punch - Temple Fretwell Dub. download 3:12. 2 Track07. download 2:50. 2 Pako and Frederik - Make Me. download 63:21. Listen free to Various Artists Global Underground - Electric Calm Vol. 2 Hard to Resist, Glitter Love and more. 16 tracks 133:07. Warning Deleting this artist may remove other artists and scrobbles from your library - please handle with caution Note: You can view albums tagged as 'Various Artists' in your library here. The term Various Artists is used in the record industry when numerous singers and musicians collaborate on a song or collection of songs

Performer

Listen to music from Various Performer like O Albion and Die Torrente In Via Bibet. Find the latest tracks, albums, and images from Various Performer. Learn more. Recent Listening Trend. various Performer: Franco in the Performers скачать mp3 в хорошем качестве, либо слушайте песню , а также рингтоны на звонок и все новые треки. The Performer creates fresh, original and modern music in a variety of genres for media, with a focus on inspiring, uplifting and cinematic music. My objective is to make high-quality music which may. 7 Tracks. Stream Tracks and Playlists from Royalty Free Music The Performer on your desktop or mobile device. American Epic The Soundtrack Performer Various CD. 1 product ratingAbout this product. Your pick. Various Music. 90 видео. Обновлен 13 февр. 2011 г. Musically musical. Animated Sheet Music: Giant Steps by John Coltrane. Justice . Justice Remix. Awesome Electric Violin - Ed Busking Chester. Язык: Русский. Страна: США. Various Artists. World's Greatest Elevator Music. Your Rating. Overview . Love Me Tender. Vera Matson, Elvis Presley. Various Performer, Conductor Format: Audio CD. World of Early Music. Please retry. Various artists - рус. различные исполнители - часто применяемое коллективное имя исполнителей в названиях сборников музыки. Чаще всего встречающееся в названиях сборников именно электронной музыки. American popular music has had a profound effect on music across the world. The country has seen the rise of popular styles that have had a significant influence on global culture, including ragtime, blues, jazz, swing, rock, bluegrass, country, R&B, doo wop, gospel, soul, funk, heavy metal, punk, disco, house, techno, salsa, grunge and hip hop. In addition, the American music industry is quite diverse, supporting a number of regional styles such as zydeco, klezmer and slack-key

Video

User reviews
Cia
Personally its all about this ?> Twisted Air Feels Like Forever
Featuring – Caroline Thorp
nothing more RIP STARKID Adam after 17 yrs of your passing We are Still talking about you and your music .
Foiuost
If your CD player does not support rewinding to listen to the hidden track, here's a solution to get a hold of it.

Load into a computer with a drive that does support HTOA.
Open ExactAudioCopy
Copy image and cue sheet, you will get 1 wave file containing the full disc.
Now you can already play the hidden track in the big wave file (it does have 30 s of silence at the beginning...), if you want to split into individual tracks, then adapt the generated cue sheet.

TITLE "Electric Calm V.2"
FILE "FILENAMEOFYOURWAVEFILE.wav" WAVE
TRACK 01 AUDIO
TITLE "Four U"
PERFORMER "Bluefish"
INDEX 00 00:00:00
INDEX 01 00:30:00
TRACK 02 AUDIO
TITLE "Inner Calm"
PERFORMER "The Forth"
INDEX 01 09:01:57
TRACK 03 AUDIO
TITLE "The Roots (Reprise)"
PERFORMER "Lo Step Feat. Lior Attar"
INDEX 01 11:36:34
TRACK 04 AUDIO
TITLE "Transition"
PERFORMER "Spanner"
INDEX 01 14:56:39
TRACK 05 AUDIO
TITLE "Temple (Fretwell Dub)"
PERFORMER "J-Punch"
INDEX 01 17:35:51
TRACK 06 AUDIO
TITLE "Kaleidoscope (Forth's Blue Mix)"
PERFORMER "Trafik"
INDEX 01 22:41:55
TRACK 07 AUDIO
TITLE "Last House On The Left"
PERFORMER "P.B.A.S. vs. Trafik"
INDEX 01 26:46:39
TRACK 08 AUDIO
TITLE "Pintan Alley (Extended Corridor Mix)"
PERFORMER "Pako & Frederik"
INDEX 01 32:07:72
TRACK 09 AUDIO
TITLE "Dusk 2 Dawn"
PERFORMER "Forth"
INDEX 01 35:20:13
TRACK 10 AUDIO
TITLE "Glitter Love"
PERFORMER "Avatar"
INDEX 01 41:29:69
TRACK 11 AUDIO
TITLE "Catoplex"
PERFORMER "23rd State"
INDEX 01 47:05:03
TRACK 12 AUDIO
TITLE "Hard To Resist"
PERFORMER "Trafik"
INDEX 01 48:50:19
TRACK 13 AUDIO
TITLE "Mellow Mellow"
PERFORMER "Bluefish"
INDEX 01 55:36:21
TRACK 14 AUDIO
TITLE "Make Me (Electric Calm Reprise)"
PERFORMER "Pako & Frederik"
INDEX 01 61:33:03
TRACK 15 AUDIO
TITLE "Feels Like Forever"
PERFORMER "Twisted Air Feat. Caroline Thorp"
INDEX 01 64:23:28

Open ExactAudioCopy, Tools, Split WAV with CUE sheet. Load your wav and cue files et voila, a full copy of the hidden track (and all the others) is at your disposal.
Lianeni
V.2 was conceived as a sequel to Electric Calm, but has now been born as an album with it's own personality, and it's own incarnation of tranquil, electronic music. Imagine V.1 as a retrospective definition of Quad Communications, and V.2 as a neoteric projection of the music to come from Global Underground Music, the label - well, in a tranquil guise.

As important to the album as the tracks themselves, is the manner in which they are blended together to form the metaphorical ‘musical journey’. Again, entrusted to this task was the ever-present 'Forth'. When asked how the process of mixing the two albums differed the most, the reply was to point out the level of 'Electric Calming' that had taken place to create this.

Each track has been carefully cut, edited, layered, and essentially 'Calmed', so that the resulting flow of the album, could never hope to have been created with a mere two decks and one mixer. Often this is an aspect to a mix album that is either hidden or denied yet in this case, the use of technology has been fully embraced and totally abused.

Imagine this album as a carefully developed soundtrack to a story that you haven’t yet been told, and know nothing about. Let each track develop the atmosphere in your head and ask you questions that you couldn’t possibly know yet. When you've finished, listen again, find the things you won't have heard before, because there will be some; at least one. There is more to this album that you could possibly hear in one listen.