» » General Johnson And Chairmen Of The Board - What Goes Around Comes Around

General Johnson And Chairmen Of The Board - What Goes Around Comes Around Album

General Johnson And Chairmen Of The Board - What Goes Around Comes Around Album Performer: General Johnson And Chairmen Of The Board
Title: What Goes Around Comes Around
Style: Rhythm & Blues
Category: Funk
Date of release: 1993
Size MP3: 2469 mb
Size FLAC: 2989 mb
Rating: 4.6

Tracklist

I Wanna Be Your Baby
If It Ain't One Thing It's Another
Prelude
What Goes Around Comes Around
Winner Take All
Summertime Groove
Light At The End Of The Tunnel
Shero (Female Hero)
Better Late Than Never
Hold On! I'm Comin' To Save You
Dreamin'
Only Love Can Mend A Broken Heart

Versions

CategoryArtistTitle (Format)LabelCategoryCountryYear
SUR 4168-2, SR 1011General Johnson And Chairmen Of The Board General Johnson And Chairmen Of The Board - What Goes Around Comes Around ‎(CD, Album)Surfside Records, Surfside Records Inc.SUR 4168-2, SR 1011US1993
SUR 4168-4General Johnson And Chairmen Of The Board General Johnson And Chairmen Of The Board - What Goes Around Comes Around ‎(Cass, Album, Promo)Surfside RecordsSUR 4168-4US1993

Album

The Chairmen of the Board were a trio, and Johnson divided lead duties with Danny Woods, while their supporting arrangements and backing included the obligatory drum machines, synthesizers and New Jack trappings of the urban contemporary sound. What Goes Around Comes . Pre-gap length 0:00:. Peak level 97. 7 Extraction speed 2. 5 X Track quality 100. 0 Test CRC A5A76339 Copy CRC A5A76339 Accurately ripped confidence 1 AR v2 Copy OK. Track 2. Very nice album. Покупка General Johnson And Chairmen Of The Board - What Goes Around Comes Around - Surfside Records, Surfside Records Inc. CD, Album - SUR 4168-2, SR 1011, включает What Goes Around Comes Around, Shero Female Hero, Prelude, Better Late Than Never, Dreamin', Hold On. Also due to the COVID-19 outbreak there are severe delays all around the world, notably in parts of the USA, belgium, france, germany, italy, spain, UK. All formats Album CD CD Album CD Single CD Maxi Vinyl records LP 7 inchs 7 inchs SP 7 inchs EP 12 inchs 78 rpm 10 inchs DVD VHS Cassette Clothing T-Shirt Others. Featured items. It sometimes can enable real time monitoring of the delivery if the postal service offers a tracking number. Used method by the seller for this type of shipping : Colissimo International Monde. Priority -. Used method by the seller for this type of shipping . Chairmen of the Board is an American-Canadian, Detroit, Michigan-based soul music group, who saw their greatest commercial success in the 1970s. General Johnson 19412010 had a hit as the lead singer of The Showmen in the early 1960s, with the New Orleans rock and roll anthem It Will Stand and Carolina Beach classic 39-21-40 Shape. When HollandDozierHolland left Motown in 1967 to establish their own InvictusHot Wax group of record labels, they teamed Johnson up with Eddie Custis, Danny Woods. What Goes Around Comes Around is an album by American country music artist Waylon Jennings, released on RCA Victor in 1979. By 1979, Jennings was on the tail end a hot streak that had made him one of the biggest superstars in country music. He had scored twelve Top 10 country hits since 1973 including six chart toppers and had recorded 4 straight 1 country albums, with 1977's Ol' Waylon also hitting 15 on the pop charts. Along with fellow outlaw Willie Nelson, he was at the forefront of what was. What Goes Around Comes Pre-gap length 0:00: Peak level 97. 0 Test CRC A5A76339 Copy CRC A5A76339 Accurately ripped confidence 1 AR v2 Copy OK Track 2 Filename E:РаздачиGeneral Johnson And Chairmen Of The Board . What Goes Around Comes Around - 199302. Shero Female Hero. wav Pre-gap length 0:00: Peak level 97. 6 X Track quality 100. 0 Test CRC 1570EA52 Copy CRC 1570EA52 Accurately. Текст песни: Hey girl, is he everything you wanted in a man You know I gave you the world You had me in the palm of your formats Album CD CD Album CD Single CD Maxi Vinyl records LP 7 inchs 7 inchs SP 7 inchs EP 12 inchs 78 rpm 10 inchs DVD VHS Cassette Clothing T-Shirt Others. Price Economic : It is usually the slowest and cheapest type of shipping that can offer the seller, rarely including a tracking number and signature. It is ideal for low value items. Economy -. What goes around. Genres: Comedy. The music has some worth and Reed's singing sounds better than anything I've ever heard him do beforewhich shows me that this is the part of the business he should have stayed in, but as a moviemaker he is extremely lacking. Bo Hopkins does a good job as his brother, but other characters are just ridiculousaka. Arte Johnson as the detective that finds Reed, and Corbin's bumbling assistant. I never realized how unfunny Arte is without his Nazi headgear. Hopefully he's made some money in other more deserving parts

Performer

Most popular albums by General Johnson & The Chairmen: General Johnson & The Chairmen. All Moods. Background Music. Cool & Cocky. Track Listing. The Bottom Line. General Johnson. Chairmen of the Board, General Johnson & the Chairmen of the Board, General Johnson. Chairmen of the Board is an American-Canadian, Detroit, Michigan-based soul music group, who saw their greatest commercial success in the 1970s. General Johnson 19412010 had a hit as the lead singer of The Showmen in the early 1960s, with the New Orleans rock and roll anthem It Will Stand and Carolina Beach classic 39-21-40 Shape. When HollandDozierHolland left Motown in 1967 to establish their own InvictusHot Wax group of record labels, they teamed Johnson up with Eddie Custis, Danny Woods. People who like General Johnson And The Chairman Of The Board might also like these artists. The closer two names are, the greater the probability people will like both artists. Click on any name to travel along. General Johnson And The Chairman Of The Board Drunk Horse The Tams The Rondelles Clarence Gatemouth Brown Almond Brothers Bl'Ast Ignition Die Kreuzen Blues Company The Drifters Elvin Bishop Hazel The New Riders Of The Purple Sage John Mellendcamp Seaweed Flipper Marshal Tucker Band Green River Love Battery The Gits Wipers Mom Jeans. Posts About General Johnson and the Chairman of the Board. There are no stories available. McKinley Dentistry. General dentist. Songs in album General Johnson & The Chairmen - Success 1980. General Johnson & The Chairmen - Me, My Woman And My Music. General Johnson & The Chairmen - Fool Am I. General Johnson & The Chairmen - Summer Love. General Johnson & The Chairmen - Success. General Johnson & The Chairmen - Pretty Women Everywhere Hey Baby. General Johnson & The Chairmen - On The Beach. General Johnson & The Chairmen - Bird In The Hand. Chairmen Of The Board. Skin I'm In. We Promote Carolina Beach Music. All Music 0n Is For Entertainment Only. All Rights Go To The Artist & Record Label That Recorded This . Gift of Beach Music. Chairmen of the Board. Performer, Primary Artist. Primary Artist. What Goes Around Comes Around. Grand Strand Gold. Preppy Deluxe. The Beach Music Anthology. Carolina Beach Music: Treasure Chest, Vol. General Johnson & the Chairmen of the Board. Led by the distinctive voice of General Johnson, the Chairmen of the Board were flagship artists on Motown songwriters HollandDozierHolland's own Hot WaxInvicuts label. Their signature song was the yelping hit Give Me Just a Little More Time. The group had a number of other R&B hits over the next few years, but by the mid-'70s they had broken up, with Johnson pursuing a solo career. General Johnson & The Chairmen of the Board. Can't Get Over You. Keep On Foolin' Me. That's My Story And I'm Stickin' to It. Find the latest tracks, albums, and images from Chairmen of the Board & General Johnson. Learn more. Recent Listening Trend

Video